<?xml version="1.0" standalone="no"?>
<!DOCTYPE svg PUBLIC "-//W3C//DTD SVG 1.1//EN" "http://www.w3.org/Graphics/SVG/1.1/DTD/svg11.dtd" >
<svg xmlns="http://www.w3.org/2000/svg" xmlns:xlink="http://www.w3.org/1999/xlink" version="1.1">
<metadata>
Created by FontForge 20170731 at Thu Aug 10 06:00:30 2023
 By Aleksey,,,
Copyright (c) 2007 by Georg. All rights reserved.
</metadata>
<defs>
<font id="ChunkFive-Roman" horiz-adv-x="1292" >
  <font-face 
    font-family="ChunkFive Roman"
    font-weight="400"
    font-stretch="normal"
    units-per-em="2048"
    panose-1="0 0 5 0 0 0 0 0 0 0"
    ascent="1536"
    descent="-512"
    x-height="1024"
    cap-height="1432"
    bbox="-102 -514 2255 1935"
    underline-thickness="102"
    underline-position="-307"
    unicode-range="U+0020-2212"
  />
<missing-glyph horiz-adv-x="573" 
 />
    <glyph glyph-name=".notdef" horiz-adv-x="573" 
 />
    <glyph glyph-name=".null" horiz-adv-x="0" 
 />
    <glyph glyph-name="nonmarkingreturn" horiz-adv-x="682" 
 />
    <glyph glyph-name="space" unicode=" " horiz-adv-x="512" 
 />
    <glyph glyph-name="exclam" unicode="!" horiz-adv-x="630" 
d="M66 1042v390h489v-390l-109 -516h-270zM57 209q0 83 65 150t169 67q106 0 175 -63.5t69 -153.5q0 -89 -67 -150t-177 -61q-97 0 -165.5 64.5t-68.5 146.5z" />
    <glyph glyph-name="quotedbl" unicode="&#x22;" horiz-adv-x="1085" 
d="M520 1436l-74 -613h-256l-75 613h405zM971 1436l-74 -613h-256l-76 613h406z" />
    <glyph glyph-name="numbersign" unicode="#" horiz-adv-x="1331" 
d="M1223 659h-191l-24 -137h190l-47 -272h-190l-37 -209h-273l37 209h-137l-37 -209h-272l37 209h-232l47 272h232l24 137h-231l47 273h231l37 213h273l-37 -213h137l37 213h272l-37 -213h191zM735 522l25 137h-137l-25 -137h137z" />
    <glyph glyph-name="dollar" unicode="$" horiz-adv-x="1454" 
d="M1366 918h-371q0 110 -75 173.5t-187 63.5q-51 0 -96 -29t-45 -79q0 -33 27.5 -61.5t74.5 -50t108 -42t128.5 -43.5t134.5 -49.5t128 -64t108 -82.5t74.5 -109.5t27.5 -141.5q0 -92 -33.5 -167t-87.5 -124t-126 -82t-146 -47t-150 -14q-26 0 -72 4v-131h-131v162
q-132 46 -225 154l-22 -158h-359v516h381q0 -49 19 -86.5t46.5 -59t65 -35t67 -18.5t60.5 -6q43 0 78.5 7t65.5 31.5t30 64.5q0 25 -27 45.5t-72.5 36.5t-104.5 32t-124 36.5t-130 45.5t-124 63t-104.5 85.5t-72.5 116.5t-27 153q0 87 31.5 161.5t82 124.5t115 86t130.5 52
t128 16q45 0 92 -6v152h131v-182q144 -55 205 -172l21 172h352v-514z" />
    <glyph glyph-name="percent" unicode="%" horiz-adv-x="1228" 
d="M342 766q-103 0 -164 72.5t-61 212.5q0 121 60 196.5t155 75.5q113 0 169 -75.5t56 -211.5q0 -127 -56.5 -198.5t-158.5 -71.5zM946 1317h-235l-424 -1311h235zM342 885q26 0 41.5 41.5t15.5 109.5q0 75 -18 119.5t-51 44.5q-21 0 -40.5 -42.5t-19.5 -106.5
q0 -73 22.5 -119.5t49.5 -46.5zM895 4q-103 0 -164 72.5t-61 212.5q0 121 60 196.5t155 75.5q113 0 169 -75.5t56 -211.5q0 -127 -56.5 -198.5t-158.5 -71.5zM895 123q26 0 41.5 41.5t15.5 109.5q0 75 -18 119.5t-51 44.5q-21 0 -40.5 -42.5t-19.5 -106.5q0 -73 22.5 -119.5
t49.5 -46.5z" />
    <glyph glyph-name="ampersand" unicode="&#x26;" horiz-adv-x="1433" 
d="M1325 729h-338v-30q0 -113 -7.5 -160.5t-43.5 -106.5q-72 76 -178 258q99 60 162.5 136t85.5 149.5t9.5 144.5t-56 124.5t-120.5 86.5t-175 33q-124 0 -222 -78t-120 -204t75 -285q-92 -61 -131 -95q-156 -143 -157 -358q0 -95 32.5 -169t87.5 -117.5t124.5 -69.5
t145.5 -30t149 5t136.5 32.5t106.5 55.5q66 -49 129.5 -61t109.5 7t82 52.5t54 71t18 67.5q-104 -60 -207 78q49 66 68 152q19 -3 85.5 -0.5t76.5 2.5zM635 924q-25 27 -40 71.5t-14.5 88.5t28 76t81.5 32q73 0 90 -54q18 -57 -38 -127q-40 -50 -107 -87zM518 565
q114 -219 221 -340q-83 -68 -193 -56q-96 11 -144 75q-61 83 6 196q36 62 110 125z" />
    <glyph glyph-name="quotesingle" unicode="'" horiz-adv-x="559" 
d="M479 1436l-73 -613h-256l-76 613h405z" />
    <glyph glyph-name="parenleft" unicode="(" horiz-adv-x="794" 
d="M532 1669l211 -217q-35 -43 -49.5 -60.5t-55 -74t-62 -97.5t-54.5 -112t-50 -136.5t-30.5 -153.5t-13.5 -179q0 -131 22.5 -251t52.5 -203t78 -166t81.5 -127.5t80.5 -100.5l-211 -219q-69 63 -135 143t-129.5 185.5t-111 219t-76.5 249t-29 270.5q0 138 34 278t86 251.5
t118.5 213.5t126.5 170.5t116 116.5z" />
    <glyph glyph-name="parenright" unicode=")" horiz-adv-x="794" 
d="M51 1450l211 217q56 -48 116 -116.5t126.5 -170.5t118.5 -213.5t86 -251.5t34 -278q0 -135 -29 -270.5t-76.5 -249t-111 -219t-129.5 -185.5t-135 -143l-211 219q47 56 80.5 100t82 127.5t78.5 166.5t52.5 203t22.5 251q0 72 -8.5 141.5t-19.5 125t-33 115.5t-37.5 99
t-46 90.5t-45 75.5t-48 67.5t-41 53t-37.5 45.5z" />
    <glyph glyph-name="asterisk" unicode="*" horiz-adv-x="1228" 
d="M510 1425l-39 -61l45 -238l-182 95l-90 4l-66 -209l84 -39l193 -43l-176 -182v-58l170 -129l55 51l108 197l103 -184l63 -66l172 131l-18 74l-158 164l201 41l76 43l-66 209l-86 -4l-184 -97l45 238l-39 63h-211z" />
    <glyph glyph-name="plus" unicode="+" 
d="M1190 625v-273h-416v-415h-272v415h-416v273h416v415h272v-415h416z" />
    <glyph glyph-name="comma" unicode="," horiz-adv-x="557" 
d="M223 -397l-235 133q115 144 161.5 293.5t32.5 371.5l373 -98q6 -194 -82.5 -375.5t-249.5 -324.5z" />
    <glyph glyph-name="hyphen" unicode="-" horiz-adv-x="790" 
d="M96 625h594v-273h-594v273z" />
    <glyph glyph-name="period" unicode="." horiz-adv-x="528" 
d="M31 213q0 87 63 160t168 73t170.5 -73.5t65.5 -159.5q0 -96 -62 -158.5t-174 -62.5q-98 0 -164.5 68t-66.5 153z" />
    <glyph glyph-name="slash" unicode="/" horiz-adv-x="823" 
d="M823 1497h-331l-594 -1814h331z" />
    <glyph glyph-name="zero" unicode="0" horiz-adv-x="1226" 
d="M618 -25q-130 0 -236.5 46.5t-185 137.5t-122 235t-43.5 329q0 214 73 382t204.5 260.5t299.5 92.5q148 0 260.5 -53t184 -152t107.5 -235.5t36 -308.5q0 -344 -151 -539t-427 -195zM618 293q72 0 119 115.5t47 300.5q0 182 -51 300.5t-127 118.5q-62 2 -116 -113
t-54 -292q0 -187 57.5 -308.5t124.5 -121.5z" />
    <glyph glyph-name="one" unicode="1" horiz-adv-x="1015" 
d="M145 936l-94 227q8 4 37.5 18t38.5 18.5t35 18.5t38 22.5t36 24.5t41 31t40 36t45.5 46t47.5 54h364v-1160h191v-272h-820v272h205v760z" />
    <glyph glyph-name="two" unicode="2" horiz-adv-x="1208" 
d="M289 967l-221 233q219 254 532 254q136 0 246.5 -53.5t175.5 -156.5t65 -238q0 -70 -14.5 -126t-36.5 -96t-68.5 -83.5t-88.5 -73.5t-119 -80q-85 -54 -180 -136t-127 -139h360v164h344v-436h-1106v297q83 135 140.5 201.5t158.5 146.5q43 38 116 88.5t122 84t87 79.5
t38 90q0 135 -172 135q-39 0 -75.5 -13t-71.5 -41.5t-53.5 -46.5t-51.5 -54z" />
    <glyph glyph-name="three" unicode="3" horiz-adv-x="1105" 
d="M274 1020l-198 240q66 72 188.5 133t249.5 61q247 0 384.5 -117.5t137.5 -316.5q0 -49 -15 -92t-42 -76.5t-46.5 -52t-47.5 -39.5q190 -135 190 -336q0 -88 -32.5 -163t-87.5 -127t-128 -89t-154 -54.5t-165 -17.5q-141 0 -277.5 69.5t-199.5 162.5l209 217
q65 -65 127 -99t143 -34q87 0 135.5 40.5t48.5 116.5q0 150 -170 150h-153v244h149q76 0 125 37t49 104q0 78 -54 120t-126 42q-58 0 -122 -33t-118 -90z" />
    <glyph glyph-name="four" unicode="4" horiz-adv-x="1196" 
d="M20 696l590 736h424v-807h109v-222h-109v-133h111v-270h-664v270h129v133h-590v293zM610 625v379l-303 -379h303z" />
    <glyph glyph-name="five" unicode="5" horiz-adv-x="1181" 
d="M487 1126l-34 -198q74 49 221 49q91 0 176 -32t152.5 -91t108 -153t40.5 -209q0 -100 -35 -185.5t-95 -146t-138.5 -103.5t-166 -63.5t-177.5 -20.5q-150 0 -296 74.5t-212 173.5l223 232q70 -72 137.5 -112t149.5 -40q102 0 163.5 57.5t61.5 147.5q0 82 -61 140.5
t-148 58.5q-44 0 -82.5 -16t-60.5 -33.5t-49 -45.5l-263 117l125 705h811v-306h-551z" />
    <glyph glyph-name="six" unicode="6" horiz-adv-x="1189" 
d="M1118 1292l-139 -266q-53 31 -84 47.5t-94.5 36.5t-120.5 20q-110 -3 -181 -81t-87 -197q42 42 115.5 71.5t152.5 32.5q130 5 239.5 -50.5t174.5 -162.5t65 -243q0 -138 -61.5 -253t-184 -187.5t-284.5 -77.5q-256 -8 -421.5 165t-174.5 476q-1 65 3 131t19.5 149.5
t41.5 156.5t73 145.5t108.5 125t153.5 86.5t203 37q108 3 252 -43t231 -119zM627 662q-64 -3 -121 -39.5t-90 -77.5q0 -40 11.5 -81t34 -78t60 -60t84.5 -23q78 0 133 51.5t54 124.5q-2 72 -42 128t-124 55z" />
    <glyph glyph-name="seven" unicode="7" horiz-adv-x="1159" 
d="M31 1432h1108v-273l-551 -1159h-443l549 1159h-336v-133h-327v406z" />
    <glyph glyph-name="eight" unicode="8" horiz-adv-x="1144" 
d="M31 420q0 103 61.5 206.5t159.5 153.5q-73 44 -113.5 119.5t-40.5 153.5q0 175 131.5 289t356.5 114q231 0 360 -113t129 -290q0 -96 -49.5 -170t-122.5 -109q100 -49 155.5 -147t55.5 -207q0 -193 -149 -320t-392 -127q-249 0 -395.5 126.5t-146.5 320.5zM735 1069
q0 55 -45 92t-108 37q-60 0 -104 -39t-44 -90q0 -40 21 -68t56 -41.5t65 -19t61 -6.5q42 20 70 56t28 79zM385 432q0 -71 56 -119.5t134 -48.5q80 0 134 43.5t55 124.5q0 50 -26.5 87.5t-69.5 56.5t-83 27.5t-81 10.5q-49 -28 -84 -78t-35 -104z" />
    <glyph glyph-name="nine" unicode="9" horiz-adv-x="1202" 
d="M72 143l139 267q55 -32 84.5 -48t93.5 -36.5t121 -20.5q117 3 184 75t66 204q-99 -99 -250 -105q-130 -5 -239.5 50.5t-174.5 163t-65 243.5q0 138 61.5 253t184 187.5t284.5 77.5q126 4 235 -38.5t190.5 -124t130 -204.5t52.5 -274q2 -73 -3 -143.5t-21.5 -154
t-44 -155.5t-75.5 -141.5t-111 -119.5t-155 -82t-204 -35q-109 -3 -252.5 42.5t-230.5 118.5zM563 774q102 4 193 117q0 41 -9 81t-27.5 77.5t-53.5 60.5t-82 23q-78 0 -133 -52t-54 -125q2 -72 42 -127.5t124 -54.5z" />
    <glyph glyph-name="colon" unicode=":" horiz-adv-x="520" 
d="M31 823q0 85 62 157.5t165 72.5t167 -72.5t64 -157.5q0 -94 -62.5 -155.5t-168.5 -61.5q-93 0 -160 67.5t-67 149.5zM31 201q0 85 62 157t165 72t167 -72t64 -157q0 -92 -64.5 -154.5t-166.5 -62.5q-96 0 -161.5 67t-65.5 150z" />
    <glyph glyph-name="semicolon" unicode=";" horiz-adv-x="618" 
d="M121 788q0 87 63 160.5t168 73.5t170.5 -74t65.5 -160q0 -95 -64 -158t-172 -63q-94 0 -162.5 68.5t-68.5 152.5zM10 -264l236 -133q161 143 249.5 324.5t82.5 375.5l-373 98q14 -222 -33 -371.5t-162 -293.5z" />
    <glyph glyph-name="less" unicode="&#x3c;" horiz-adv-x="1064" 
d="M756 1024l-613 -307v-287l660 -307l78 213l-506 227l506 232z" />
    <glyph glyph-name="equal" unicode="=" horiz-adv-x="1028" 
d="M90 831h844v-272h-844v272zM90 379h844v-273h-844v273z" />
    <glyph glyph-name="greater" unicode="&#x3e;" horiz-adv-x="1064" 
d="M268 1024l613 -307v-287l-660 -307l-78 213l506 227l-506 232z" />
    <glyph glyph-name="question" unicode="?" horiz-adv-x="1064" 
d="M225 977l-221 223q109 127 245.5 195.5t287.5 68.5q138 0 247 -46.5t174.5 -143t65.5 -230.5q0 -54 -18 -102t-46.5 -83t-63.5 -66t-70 -56.5t-63.5 -49t-46.5 -48t-18 -49.5v-113h-381v164q0 44 24 87.5t60.5 77t78.5 68t78.5 61.5t60.5 57.5t24 56.5q0 96 -151 96
q-61 0 -134.5 -49.5t-132.5 -118.5zM264 209q0 83 65 150t169 67q106 0 174.5 -63.5t68.5 -153.5q0 -89 -67 -150t-176 -61q-97 0 -165.5 64.5t-68.5 146.5z" />
    <glyph glyph-name="at" unicode="@" horiz-adv-x="1705" 
d="M1198 592v-258q3 -52 45 -87q47 -39 88 -8q64 47 64 240q0 75 -21.5 151.5t-67 148.5t-108.5 128t-153.5 89.5t-194.5 33.5t-194 -33.5t-152 -89.5t-106.5 -128t-65.5 -148.5t-21 -151.5q0 -102 39.5 -197t109.5 -167.5t174.5 -115t225.5 -40.5v-184q-161 -1 -301 57
t-235 156t-149 226t-54 265q0 83 21 168t60.5 167.5t102.5 154.5t141 127t182.5 86.5t221.5 31.5q140 0 261.5 -45t206.5 -120t146.5 -170.5t91 -198t29.5 -201.5q0 -105 -21.5 -185.5t-57.5 -127.5t-82.5 -76t-97.5 -35t-102 -1t-96 23t-80 41t-53 48l-32 59
q-27 -47 -79.5 -66.5t-99.5 -19.5q-66 0 -122.5 22.5t-96 74.5t-39.5 124q0 112 78 178t195 66q82 0 129 -47v47q0 41 -31.5 57.5t-93.5 16.5q-86 0 -195 -62l-55 152q145 96 289 96q65 0 123.5 -13t113 -42.5t87 -85t32.5 -131.5zM928 356v47q-1 1 -4 6t-5.5 8.5t-9 9
t-13.5 9t-19.5 6t-26.5 2.5q-37 0 -55.5 -19.5t-18.5 -51.5q0 -27 19.5 -43.5t50.5 -16.5q27 0 52.5 13t29.5 30z" />
    <glyph glyph-name="A" unicode="A" horiz-adv-x="1685" 
d="M1655 0h-821v268h194l-43 140h-420l-43 -140h160v-268h-651v268h139l276 899h-84v265h787l362 -1164h144v-268zM641 653h268l-135 443z" />
    <glyph glyph-name="B" unicode="B" horiz-adv-x="1406" 
d="M51 0v266h119v901h-119v265h764q251 0 376.5 -90.5t125.5 -260.5q0 -131 -43.5 -201.5t-157.5 -115.5q120 -33 195 -120t75 -228q0 -218 -131 -317t-426 -99h-778zM594 1161v-307h125q78 0 108.5 39.5t30.5 118.5q0 69 -37.5 109t-97.5 40h-129zM594 266h164q68 0 117 48
t49 128q0 81 -45 131t-127 50h-158v-357z" />
    <glyph glyph-name="C" unicode="C" horiz-adv-x="1404" 
d="M1135 518l239 -262q-115 -128 -273.5 -208.5t-346.5 -80.5q-328 0 -525.5 197.5t-197.5 537.5q0 136 39 258.5t103 211t145 154t167.5 98t167.5 32.5q71 0 131.5 -17t98.5 -44t56.5 -44.5t29.5 -33.5l47 115h321v-582h-366q-5 109 -60 183.5t-157 74.5
q-108 0 -176 -117.5t-68 -288.5q0 -104 33 -190t102.5 -140.5t163.5 -54.5q31 0 63 8t58 20.5t53 30.5t46.5 34t40 36t31 32t22.5 26z" />
    <glyph glyph-name="D" unicode="D" horiz-adv-x="1474" 
d="M51 0v272h127v889h-127v271h625q182 0 330 -54t245.5 -148t150 -221t52.5 -274q0 -351 -204.5 -543t-581.5 -192h-617zM598 272h78q105 2 175.5 65.5t101 164t30.5 233.5q0 85 -18 159.5t-53.5 135t-96.5 96t-139 35.5h-78v-889z" />
    <glyph glyph-name="E" unicode="E" horiz-adv-x="1337" 
d="M51 1432h1235v-453h-354v182h-328v-282h389v-273h-389v-334h328v191h354v-463h-1235v272h129v889h-129v271z" />
    <glyph glyph-name="F" unicode="F" horiz-adv-x="1306" 
d="M51 1432h1225v-453h-363v182h-309v-356h389v-273h-389v-260h209v-272h-762v272h127v889h-127v271z" />
    <glyph glyph-name="G" unicode="G" horiz-adv-x="1589" 
d="M1067 0l-63 129q-36 -61 -126.5 -104t-203.5 -43q-134 0 -251.5 51t-204.5 142.5t-137 228t-50 298.5t53.5 305t141 240t201 153t232.5 56q71 0 131 -11t97.5 -26t70.5 -37.5t48 -38t32.5 -36t20.5 -23.5l43 148h305v-605h-367q-4 120 -71 190t-162 70q-81 0 -146 -53.5
t-100 -141.5t-35 -190q0 -162 75.5 -269t205.5 -107q80 0 125 26.5t72 73.5v86h-125v219h680v-219h-82v-512h-410z" />
    <glyph glyph-name="H" unicode="H" horiz-adv-x="1572" 
d="M51 1432h664v-271h-127v-309h389v309h-121v271h666v-271h-119v-891h119v-270h-666v270h121v310h-389v-310h127v-270h-664v270h113v891h-113v271z" />
    <glyph glyph-name="I" unicode="I" horiz-adv-x="782" 
d="M51 1432h680v-271h-127v-889h127v-272h-680v272h129v889h-129v271z" />
    <glyph glyph-name="J" unicode="J" horiz-adv-x="948" 
d="M41 -395v270q41 -18 92 -18q170 0 170 295v1011h-176v269h770v-269h-170v-1011q0 -139 -31 -242.5t-98.5 -178t-179.5 -112t-268 -37.5q-46 0 -109 23z" />
    <glyph glyph-name="K" unicode="K" horiz-adv-x="1669" 
d="M696 1167h-110v-333l381 333h-148v265h682v-265h-119l-297 -256l414 -645h119v-266h-799v266h139l-221 348l-151 -129v-219h110v-266h-645v266h111v901h-111v265h645v-265z" />
    <glyph glyph-name="L" unicode="L" horiz-adv-x="1249" 
d="M51 1432h647v-271h-108v-889h264v260h344v-532h-1147v272h113v889h-113v271z" />
    <glyph glyph-name="M" unicode="M" horiz-adv-x="2064" 
d="M1481 1071h-8q-30 -174 -60 -274l-215 -797h-428l-229 817q-35 124 -43 254h-9v-807h117v-264h-555v264h111v903h-109v265h776l207 -766l197 766h780v-265h-112v-901h112v-266h-647v266h115v684v121z" />
    <glyph glyph-name="N" unicode="N" horiz-adv-x="1671" 
d="M1620 1167h-135v-1167h-441l-522 780v-516h158v-264h-629v264h121v903h-119v265h588l502 -752v487h-139v265h616v-265z" />
    <glyph glyph-name="O" unicode="O" horiz-adv-x="1515" 
d="M764 -37q-162 0 -295.5 47.5t-231.5 140t-152 238.5t-54 334q0 218 91 388.5t254.5 264.5t373.5 94q185 0 326 -54t230 -154t134 -239t45 -314q0 -350 -188.5 -548t-532.5 -198zM764 285q96 0 152.5 116t56.5 308q0 129 -22.5 226.5t-74.5 158.5t-128 61q-93 1 -152 -120
t-59 -312q0 -198 63.5 -318t163.5 -120z" />
    <glyph glyph-name="P" unicode="P" horiz-adv-x="1310" 
d="M51 1432h664q138 0 240.5 -24t164 -63t98 -97.5t49.5 -118.5t13 -136q0 -130 -74.5 -223.5t-194.5 -137.5t-270 -44h-155v-318h125v-270h-660v270h115v893h-115v269zM586 1165v-356h92q91 0 146 45t55 125q0 90 -50.5 138t-140.5 48h-102z" />
    <glyph glyph-name="Q" unicode="Q" horiz-adv-x="1546" 
d="M1516 217v-104q0 -143 -80 -235.5t-228 -92.5q-118 0 -199 64t-118 163q-74 -12 -160 -12q-156 0 -284 46t-221 135t-144 227.5t-51 316.5q0 315 190.5 514t497.5 199q178 0 312.5 -52t219 -148.5t126.5 -228.5t42 -298q0 -327 -170 -512q15 -60 35.5 -96.5t54.5 -36.5
q41 0 41 92v59h136zM731 711q118 0 230 -80q4 50 4 80q0 182 -68.5 305t-179.5 123q-94 2 -165 -118t-71 -296q0 -66 8 -113q95 99 242 99zM731 307q58 0 109 45q-12 85 -36 128.5t-73 43.5q-84 0 -137 -149q62 -68 137 -68z" />
    <glyph glyph-name="R" unicode="R" horiz-adv-x="1509" 
d="M51 1432h666q139 0 241 -22t164 -58.5t99 -93t50 -114.5t13 -134q0 -117 -83 -197.5t-214 -99.5q108 -15 188 -99t80 -192q0 -139 50 -139q47 0 47 65v68h137v-113q0 -53 -9 -99.5t-31 -89t-55.5 -73t-85.5 -48.5t-118 -18q-198 0 -297.5 99t-99.5 282q0 75 -6 115.5
t-28.5 69.5t-61.5 38t-109 9v-318h125v-270h-662v270h115v893h-115v269zM588 1165v-348h92q91 0 144 43t53 123q0 90 -48.5 136t-138.5 46h-102z" />
    <glyph glyph-name="S" unicode="S" horiz-adv-x="1454" 
d="M51 0v516h381q0 -49 19 -86.5t46.5 -59t65 -35t67 -18.5t60.5 -6q43 0 78.5 7t65.5 31.5t30 64.5q0 25 -27 45.5t-72.5 36.5t-104.5 32t-124 36.5t-130 45.5t-124 63t-104.5 85.5t-72.5 116.5t-27 153q0 87 31.5 161.5t82 124.5t115 86t130.5 52t128 16q141 0 255.5 -50
t172.5 -158l21 172h352v-514h-371q0 110 -75 173.5t-187 63.5q-51 0 -96 -29t-45 -79q0 -33 27.5 -61.5t74.5 -50t108 -42t128.5 -43.5t134.5 -49.5t128 -64t108 -82.5t74.5 -109.5t27.5 -141.5q0 -92 -33.5 -167t-87.5 -124t-126 -82t-146 -47t-150 -14q-143 0 -251.5 54.5
t-176.5 134.5l-22 -158h-359z" />
    <glyph glyph-name="T" unicode="T" horiz-adv-x="1435" 
d="M1405 1432v-533h-301v262h-172v-889h170v-272h-762v272h168v889h-176v-262h-301v533h1374z" />
    <glyph glyph-name="U" unicode="U" horiz-adv-x="1509" 
d="M31 1432h651v-265h-111v-442q0 -98 9 -168.5t25 -115t42.5 -70.5t56.5 -35.5t72 -9.5q41 0 70 8t56.5 32t44 67.5t26.5 117t10 176.5v434h-111v271h607v-265h-111v-497q0 -359 -148 -532t-440 -173q-315 9 -475 179.5t-160 514.5v506h-114v267z" />
    <glyph glyph-name="V" unicode="V" horiz-adv-x="1583" 
d="M860 459h10q6 92 74 260l186 446h-108v267h582v-267h-101l-491 -1165h-377l-543 1165h-112v267h753v-267h-110l174 -458q58 -175 63 -248z" />
    <glyph glyph-name="W" unicode="W" horiz-adv-x="2078" 
d="M655 463h11q3 49 100 508l102 461h426l129 -566q41 -187 62 -403h10q6 65 26 193t35 198l70 311h-113v267h586v-267h-112l-306 -1165h-485l-123 487q-28 109 -51 254h-8q-12 -95 -49 -249l-125 -492h-475l-271 1165h-114v267h675v-267h-118l53 -299q28 -117 65 -403z" />
    <glyph glyph-name="X" unicode="X" horiz-adv-x="1710" 
d="M731 0h-680v264h178l301 391l-370 510h-107v267h811v-267h-119l201 -272l209 272h-180v267h680v-267h-174l-310 -395l369 -504h119v-266h-817v266h116l-155 209l-43 57l-211 -268h182v-264z" />
    <glyph glyph-name="Y" unicode="Y" horiz-adv-x="1370" 
d="M756 786h8q3 14 13 39.5t18.5 44.5t24.5 52t20 41l112 206h-112v263h551v-263h-111l-379 -665v-238h115v-266h-656v266h117v242l-397 661h-100v263h700v-263h-107l119 -217q5 -17 32.5 -82t31.5 -84z" />
    <glyph glyph-name="Z" unicode="Z" horiz-adv-x="1462" 
d="M63 893v539h1344l4 -273l-749 -889h380v262h363v-532h-1354v266l746 893h-385v-266h-349z" />
    <glyph glyph-name="bracketleft" unicode="[" horiz-adv-x="794" 
d="M793 -430h-510v2097h512v-268h-123v-1561h121v-268z" />
    <glyph glyph-name="backslash" unicode="\" horiz-adv-x="823" 
d="M0 1497h332l594 -1814h-332z" />
    <glyph glyph-name="bracketright" unicode="]" horiz-adv-x="794" 
d="M2 -430h510v2097h-512v-268h123v-1561h-121v-268z" />
    <glyph glyph-name="underscore" unicode="_" 
d="M86 -90h1104v-111h-1104v111z" />
    <glyph glyph-name="a" unicode="a" horiz-adv-x="1228" 
d="M160 700l-86 238q243 145 446 145q79 0 152.5 -11.5t148.5 -42t130 -76.5t89.5 -121t34.5 -170v-400h123v-262h-438l-49 92q-51 -70 -129 -100.5t-148 -30.5q-60 0 -117 12.5t-109 39.5t-91 66.5t-62.5 97t-23.5 126.5q0 112 58.5 199t155 132.5t212.5 45.5
q55 0 103.5 -16.5t69.5 -31t29 -24.5v72q0 64 -51 89.5t-143 25.5q-133 0 -305 -95zM659 295v78q-35 59 -120 59q-59 0 -89 -29.5t-30 -78.5q0 -42 31 -69.5t77 -27.5q43 0 79.5 21t51.5 47z" />
    <glyph glyph-name="b" unicode="b" horiz-adv-x="1343" 
d="M63 0v266h87v1002h-87v268h496v-592q34 39 113 67.5t155 28.5q113 0 205 -45t150 -120.5t88 -171t28 -199.5q-5 -239 -131.5 -383t-341.5 -144q-73 0 -127.5 14.5t-80.5 31t-62 47.5l-31 -70h-461zM848 500q0 62 -18 119.5t-52.5 95t-77.5 37.5q-63 0 -107 -73t-38 -190
q0 -103 44 -174t103 -71q65 0 105.5 70t40.5 186z" />
    <glyph glyph-name="c" unicode="c" horiz-adv-x="1087" 
d="M1038 561h-301q-2 55 -13.5 100t-41.5 80t-74 35q-86 0 -133 -77t-47 -185q0 -103 57.5 -172t153.5 -70q78 -1 135.5 28t112.5 89l180 -209q-80 -87 -213.5 -148t-288.5 -61q-115 0 -215.5 35t-178.5 101t-123.5 172t-45.5 239q0 131 41.5 233.5t112.5 165t160 94
t190 31.5q157 0 256 -116l35 98h241v-463z" />
    <glyph glyph-name="d" unicode="d" horiz-adv-x="1298" 
d="M754 1270h-95v266h510v-1270h99v-266h-480l-34 76q-20 -18 -47.5 -36t-87 -38t-123.5 -20q-140 0 -250.5 76t-168 198.5t-57.5 265.5q0 116 39 215.5t104.5 166t152 103.5t180.5 37q51 0 93.5 -7.5t77.5 -23t48 -22.5t39 -24v303zM461 522q0 -98 41.5 -175t105.5 -77
q63 0 107.5 73t38.5 189q0 103 -44.5 174.5t-103.5 71.5q-65 0 -105 -70t-40 -186z" />
    <glyph glyph-name="e" unicode="e" horiz-adv-x="1110" 
d="M907 340l172 -199q-111 -96 -237.5 -137t-290.5 -41q-79 0 -154 19.5t-146 63t-124 107t-85 157.5t-32 208q0 123 42.5 225t117 169t175 104t216.5 37q180 0 312.5 -82.5t177.5 -214.5q14 -40 22 -95t5 -125.5t-23 -125.5h-645q5 -23 10 -39t20 -43t35.5 -43.5
t58.5 -29.5t87 -13q46 0 82 4.5t94.5 27.5t109.5 66zM416 612h309q-1 34 -6.5 59.5t-20.5 51t-46.5 39.5t-78.5 14q-44 0 -76 -17.5t-48 -46t-23.5 -52.5t-9.5 -48z" />
    <glyph glyph-name="f" unicode="f" horiz-adv-x="790" 
d="M842 1522l-123 -236q-48 21 -113 21t-65 -109v-174h186v-266h-186v-490h123v-268h-611v268h82v490h-84v266h84v174q0 30 3 58t13 67t27 72t48.5 67t72.5 57.5t103.5 38.5t138.5 15q80 0 170.5 -15.5t130.5 -35.5z" />
    <glyph glyph-name="g" unicode="g" horiz-adv-x="1310" 
d="M49 -240l109 228q49 -42 151 -86.5t205 -44.5q66 0 114.5 17.5t74 46.5t37.5 61t12 67v70q-32 -41 -93 -77t-147 -36q-102 0 -186 28.5t-140 77t-94 115t-55 139t-17 152.5q0 243 133 384.5t382 141.5q64 0 123.5 -24.5t93.5 -58.5l41 63h487v-268h-123v-613
q0 -262 -162 -412t-477 -151q-104 1 -203.5 32.5t-159.5 68.5t-106 79zM457 522q0 -98 41.5 -175t105.5 -77q63 0 107.5 73t38.5 189q0 103 -44.5 174.5t-103.5 71.5q-65 0 -105 -70t-40 -186z" />
    <glyph glyph-name="h" unicode="h" horiz-adv-x="1353" 
d="M694 0h-643v268h86v1002h-86v266h496v-639q26 42 124.5 103t196.5 61q66 0 119.5 -14t90.5 -37.5t64.5 -59t43.5 -72.5t25.5 -85t12.5 -90t3 -93v-342h96v-268h-526v557q0 30 -1 48t-7 48.5t-18 48.5t-36 32t-59 14q-37 0 -63.5 -17t-40 -46t-19.5 -60.5t-6 -67.5v-289
h147v-268z" />
    <glyph glyph-name="i" unicode="i" horiz-adv-x="675" 
d="M109 1323q0 78 60.5 143.5t160.5 65.5q99 0 162 -66t63 -143q0 -89 -60 -148t-165 -59q-93 0 -157 64.5t-64 142.5zM625 0h-574v268h86v490h-86v266h475v-756h99v-268z" />
    <glyph glyph-name="j" unicode="j" horiz-adv-x="737" 
d="M233 1323q0 78 61 143.5t161 65.5q99 0 162 -66t63 -143q0 -89 -60 -148t-165 -59q-93 0 -157.5 65t-64.5 142zM262 758h-86v266h475v-881q0 -60 -5.5 -112t-22.5 -112t-45 -108t-75.5 -94t-111.5 -77t-156.5 -49.5t-205.5 -18.5v274q48 0 86 11.5t62 28t41.5 44.5
t25.5 50t12.5 56.5t5 52.5t0.5 48v6v615z" />
    <glyph glyph-name="k" unicode="k" horiz-adv-x="1339" 
d="M78 0v266h84v1002h-84v268h473v-926l237 142h-147v270h573v-270h-157l-139 -88l276 -396h102v-268h-606v268h86l-155 221l-72 -49v-172h76v-268h-547z" />
    <glyph glyph-name="l" unicode="l" horiz-adv-x="679" 
d="M649 0h-598v268h88v1004h-86v264h475v-1268h121v-268z" />
    <glyph glyph-name="m" unicode="m" horiz-adv-x="1859" 
d="M659 0h-608v268h86v484h-86v270h387l45 -121q127 150 256 150q59 0 108.5 -11.5t78.5 -25.5t56 -38.5t37 -37.5t25 -35q130 148 302 148q96 0 167 -28t111.5 -72t65 -111.5t32 -132.5t7.5 -148v-283h100v-276h-520v502q0 12 0.5 34t0.5 37.5v37.5t-2 37.5t-5 33.5t-9 30
t-14.5 23t-20.5 16t-28 5q-62 0 -85.5 -38.5t-23.5 -111.5v-332h123v-274h-530v522q0 48 -0.5 75.5t-3.5 58t-8.5 46t-15 30t-23.5 19.5t-35 5q-49 0 -70.5 -29.5t-21.5 -93.5v-365h122v-268z" />
    <glyph glyph-name="n" unicode="n" horiz-adv-x="1325" 
d="M682 0h-631v268h86v490h-86v266h436l48 -127q120 164 292 164q92 0 160 -27t107.5 -69t63.5 -104t32 -121t8 -130v-342h96v-268h-516v559q0 89 -12 124q-26 66 -102 67q-37 0 -63.5 -17t-40 -46t-19.5 -60.5t-6 -67.5v-291h147v-268z" />
    <glyph glyph-name="o" unicode="o" horiz-adv-x="1175" 
d="M594 -27q-112 0 -213.5 34.5t-183 100.5t-128.5 171.5t-46 236.5q1 100 32 186.5t85 149t125 108t152.5 67.5t166.5 22q163 -2 289.5 -65t201.5 -186t78 -290q1 -124 -42 -226.5t-119.5 -169t-178.5 -103t-219 -36.5zM594 236q64 0 101.5 76.5t37.5 195.5t-39.5 196
t-109.5 78q-60 0 -101 -77.5t-41 -190.5q0 -124 43 -201t109 -77z" />
    <glyph glyph-name="p" unicode="p" horiz-adv-x="1306" 
d="M51 -150h86v902h-86v272h469l35 -72q118 88 248 88q116 0 209.5 -42.5t152.5 -116.5t90 -170.5t31 -206.5q0 -159 -62 -280t-167.5 -184t-237.5 -63q-59 0 -109.5 10t-83.5 26t-47.5 25.5t-25.5 18.5v-207h111v-268h-613v268zM846 500q0 62 -18 119.5t-52.5 95
t-77.5 37.5q-63 0 -107 -73t-38 -190q0 -103 44 -174t103 -71q65 0 105.5 70t40.5 186z" />
    <glyph glyph-name="q" unicode="q" horiz-adv-x="1351" 
d="M651 -203h133v271q-42 -35 -110.5 -60.5t-151.5 -25.5q-98 0 -184 38t-149.5 106t-100.5 169.5t-37 222.5q0 129 38 231t105 165.5t155.5 96.5t191.5 33q89 0 156 -27t87 -54l39 61h477v-266h-100v-955h100v-274h-649v268zM784 526q0 98 -41.5 175t-105.5 77
q-63 0 -107 -72.5t-38 -189.5q0 -103 44 -174.5t103 -71.5q65 0 105 70t40 186z" />
    <glyph glyph-name="r" unicode="r" horiz-adv-x="847" 
d="M631 0h-580v268h90v490h-88v266h385l62 -131q20 36 33.5 57.5t40 48.5t56.5 41t78 24.5t109 10.5v-368q-147 0 -218 -49.5t-71 -178.5v-211h103v-268z" />
    <glyph glyph-name="s" unicode="s" horiz-adv-x="1040" 
d="M31 0v369h274q0 -38 24.5 -67t61.5 -43.5t70.5 -21t60.5 -6.5q90 0 90 70q0 17 -16.5 30.5t-48.5 24.5t-66 20t-83.5 22t-86.5 26q-57 20 -102 45.5t-85.5 63.5t-62.5 94t-22 125q0 74 35.5 133.5t91 94t115.5 52t118 17.5q102 0 187.5 -46t118.5 -114l16 135h252v-369
h-266q0 63 -65 109.5t-144 46.5q-35 0 -57.5 -19t-22.5 -55q0 -16 12 -30t41 -27t52 -21.5t72.5 -24t74.5 -24.5q45 -15 68.5 -23.5t64 -26.5t63.5 -33.5t52 -41t44 -53t26 -66t11 -83.5q0 -139 -112.5 -223.5t-268.5 -84.5q-105 0 -189.5 43.5t-123.5 106.5l-18 -125h-256z
" />
    <glyph glyph-name="t" unicode="t" horiz-adv-x="743" 
d="M31 1024h110v188l377 121v-309h195v-266h-195v-365q0 -9 -0.5 -31t-0.5 -33t1.5 -29.5t6 -28.5t11.5 -21t19 -16t29 -5q44 0 129 35v-262q-41 -17 -122 -28t-126 -11q-90 0 -151 22t-94 52t-50.5 94t-22 114.5t-6.5 147.5v365h-110v266z" />
    <glyph glyph-name="u" unicode="u" 
d="M31 1024h495v-494q0 -136 25 -197t86 -61q55 0 92 44t37 112v326h-135v270h530v-752h101v-272h-388l-55 129q-1 -1 -20.5 -24t-27.5 -30.5t-30 -28.5t-40.5 -30t-46 -22t-59 -18t-67.5 -5q-226 0 -318.5 119t-92.5 381v283h-86v270z" />
    <glyph glyph-name="v" unicode="v" horiz-adv-x="1255" 
d="M668 332h8q2 35 19 102t42 123l99 207h-109v260h528v-260h-106l-354 -764h-318l-381 764h-96v260h623v-260h-103l94 -217q46 -134 54 -215z" />
    <glyph glyph-name="w" unicode="w" horiz-adv-x="1785" 
d="M578 313h4q19 266 84 482l65 229h379l78 -266q60 -194 88 -445h4q17 192 55 324l35 121h-84v266h500v-266h-84l-240 -758h-432l-141 463l-148 -463h-422l-231 758h-88v266h551v-266h-70l45 -150q20 -67 34 -154t18 -141z" />
    <glyph glyph-name="x" unicode="x" horiz-adv-x="1329" 
d="M768 1024h522v-256h-135l-217 -219l258 -295h96v-254h-653v254h96l-155 166l-148 -166h133v-254h-524v254h137l209 235l-254 279h-92v256h664v-256h-97l144 -156l153 156h-137v256z" />
    <glyph glyph-name="y" unicode="y" horiz-adv-x="1187" 
d="M782 764h-94v260h520v-254h-98l-389 -946q-23 -49 -40 -80t-54.5 -75.5t-79.5 -70.5t-111.5 -45t-154.5 -18q-138 8 -248 103l153 241q67 -59 119 -69q44 -8 79 24.5t52 83.5l29 86l-399 758h-84v262h630v-260h-96l133 -320z" />
    <glyph glyph-name="z" unicode="z" horiz-adv-x="1132" 
d="M51 614v410h1014v-264l-487 -492h215v140h288v-408h-1030v268l494 492h-228v-146h-266z" />
    <glyph glyph-name="braceleft" unicode="{" horiz-adv-x="921" 
d="M532 1669l211 -217q-84 -19 -135 -44.5t-70.5 -54.5t-23.5 -64.5t6 -76t18 -87.5t13 -99t-10 -111q-8 -36 -36.5 -105t-52.5 -120l-24 -51q70 -176 84 -252q13 -65 7.5 -121.5t-12.5 -108t-15 -95.5t-1 -83t30 -72t78.5 -62.5t143.5 -53.5l-211 -219q-93 30 -158 68
t-101.5 78t-56.5 90t-24 98t-3.5 108.5t4.5 115t1.5 124t-14.5 129.5q-7 36 -39.5 100t-60.5 110l-29 46q15 23 38.5 58.5t67.5 114.5t54 120q17 67 21 143.5t0.5 135t-4 120t11.5 109.5t42 92t92 78.5t158 58.5z" />
    <glyph glyph-name="bar" unicode="|" horiz-adv-x="819" 
d="M313 -207v1882h191v-1882h-191z" />
    <glyph glyph-name="braceright" unicode="}" horiz-adv-x="921" 
d="M446 1669l-210 -217q84 -19 135 -44.5t70.5 -54.5t23.5 -64.5t-6 -76t-18 -87.5t-13 -99t10 -111q8 -36 36.5 -105t52.5 -120l24 -51q-70 -176 -84 -252q-13 -65 -7.5 -121.5t12.5 -108t15 -95.5t1 -83t-30 -72t-78.5 -62.5t-143.5 -53.5l210 -219q93 30 158 68t101.5 78
t57 90t24.5 98t3.5 108.5t-4.5 115t-1.5 124t14.5 129.5q7 36 39.5 100t61.5 110l28 46q-15 23 -38.5 58.5t-67.5 114.5t-54 120q-17 67 -21 143.5t-1 135t3.5 120t-11.5 109.5t-42 92t-92 78.5t-158 58.5z" />
    <glyph glyph-name="asciitilde" unicode="~" horiz-adv-x="819" 
d="M0 629v-223q57 55 164 70.5t221 -27.5q66 -28 150 -39.5t164 2.5t116 57v223q-30 -37 -89 -60.5t-135.5 -26t-156.5 31.5q-113 55 -243 51.5t-191 -59.5z" />
    <glyph glyph-name="sterling" unicode="&#xa3;" horiz-adv-x="1454" 
d="M1399 1432v-332q-63 55 -159.5 100.5t-198.5 70t-195.5 6t-140.5 -86.5q-31 -44 -35 -99t9 -102t42 -115h459v-102h-414q30 -69 46 -121t26 -118.5t-5 -132t-55 -128.5h264v260h344v-532h-1146v272h112q21 33 35 64.5t19.5 64t9 56.5t-3 57t-9.5 51t-18 53.5t-21 49
t-25.5 53t-25.5 51.5h-293v102h250q-66 178 4 365q44 120 137.5 205t214 123t254 39t270 -44.5t249.5 -129.5z" />
    <glyph glyph-name="yen" unicode="&#xa5;" horiz-adv-x="1370" 
d="M973 629l-72 -125v-39h500v-103h-500v-96h115v-266h-656v266h117v96h-502v103h502v43l-71 121h-431v102h369l-264 438h-100v263h700v-263h-107l119 -217q5 -17 32.5 -82t31.5 -84h8q3 14 13 39.5t18.5 44.5t24.5 52t20 41l112 206h-112v263h551v-263h-111l-250 -438h371
v-102h-428z" />
    <glyph glyph-name="copyright" unicode="&#xa9;" horiz-adv-x="1705" 
d="M100 664q0 99 31 201.5t94.5 198t151 170.5t210.5 120t263 45t263.5 -45t212 -120t153 -170.5t96 -198t31.5 -201.5q0 -153 -49.5 -284.5t-143 -230t-238.5 -154.5t-325 -56q-159 0 -300.5 62t-239 163.5t-154 232.5t-56.5 267zM291 664q0 -101 42 -198.5t114.5 -173.5
t178.5 -122.5t224 -46.5q135 0 243.5 42t178 115.5t106.5 171.5t37 212q0 75 -23.5 152t-72 148t-114.5 127t-158.5 89.5t-196.5 33.5t-196 -33.5t-157 -89.5t-112.5 -127.5t-70.5 -148t-23 -151.5zM1192 690h-213q-2 61 -23.5 106.5t-66.5 45.5q-61 0 -96 -55.5t-35 -129.5
t41.5 -124t111.5 -50q97 0 176 82l127 -145q-59 -64 -153.5 -108t-204.5 -44t-198.5 42.5t-144.5 133.5t-56 218q0 93 29.5 165.5t80 116t113.5 66t135 22.5q110 0 182 -84l23 72h172v-330z" />
    <glyph glyph-name="guillemotleft" unicode="&#xab;" horiz-adv-x="1433" 
d="M664 1229l-510 -512v-287l557 -512l77 213l-403 432l403 436zM1155 1229l-510 -512v-287l557 -512l78 213l-403 432l403 436z" />
    <glyph glyph-name="softhyphen" unicode="&#xad;" horiz-adv-x="790" 
d="M96 625h594v-273h-594v273z" />
    <glyph glyph-name="registered" unicode="&#xae;" horiz-adv-x="1705" 
d="M100 664q0 99 31 201.5t94.5 198t151 170.5t210.5 120t263 45t263.5 -45t212 -120t153 -170.5t96 -198t31.5 -201.5q0 -153 -49.5 -284.5t-143 -230t-238.5 -154.5t-325 -56q-159 0 -300.5 62t-239 163.5t-154 232.5t-56.5 267zM291 664q0 -101 42 -198.5t114.5 -173.5
t178.5 -122.5t224 -46.5q135 0 243.5 42t178 115.5t106.5 171.5t37 212q0 75 -23.5 152t-72 148t-114.5 127t-158.5 89.5t-196.5 33.5t-196 -33.5t-157 -89.5t-112.5 -127.5t-70.5 -148t-23 -151.5zM510 1030h356q91 0 152.5 -17t92 -49.5t42.5 -70t12 -88.5
q0 -62 -44 -103.5t-113 -50.5q59 -16 101 -58.5t42 -98.5q0 -76 27 -76q22 0 22 35v36h76v-61q0 -76 -38 -125t-122 -49q-103 0 -153 53t-50 150q0 76 -22.5 100.5t-95.5 24.5v-170h67v-142h-352v142h63v473h-63v145zM795 887v-185h49q106 0 106 89q0 96 -102 96h-53z" />
    <glyph glyph-name="plusminus" unicode="&#xb1;" 
d="M750 934h342v-223h-342v-344h-224v344h-342v223h342v340h224v-340zM184 37v223h908v-223h-908z" />
    <glyph glyph-name="twosuperior" unicode="&#xb2;" horiz-adv-x="819" 
d="M252 1161l-119 125q122 135 283 135q112 0 186 -66t74 -173q0 -38 -7.5 -67.5t-19 -50.5t-36.5 -44.5t-46 -38.5t-63 -43q-49 -32 -99 -74t-67 -71h192v88h183v-234h-586v160q44 72 74.5 107t83.5 75q23 20 79.5 57.5t84.5 65.5t28 59q0 40 -24 56t-70 16
q-26 0 -53.5 -15.5t-39.5 -27.5t-38 -39z" />
    <glyph glyph-name="threesuperior" unicode="&#xb3;" horiz-adv-x="819" 
d="M262 1204l-106 129q35 37 100.5 69t132.5 32q130 0 203.5 -62t73.5 -168q0 -74 -80 -137q100 -77 100 -178q0 -58 -26 -105t-68.5 -76t-94.5 -44t-108 -15q-77 0 -150.5 37t-105.5 86l109 115q28 -24 43.5 -35.5t44 -23t59.5 -11.5q46 0 71 21t25 61q0 82 -96 82h-78v127
h78q43 0 69.5 20.5t26.5 55.5q0 40 -29.5 63t-66.5 23q-64 0 -127 -66z" />
    <glyph glyph-name="guillemotright" unicode="&#xbb;" horiz-adv-x="1433" 
d="M279 1229l509 -512v-287l-557 -512l-77 213l403 432l-403 436zM770 1229l510 -512v-287l-557 -512l-78 213l404 432l-404 436z" />
    <glyph glyph-name="questiondown" unicode="&#xbf;" horiz-adv-x="1064" 
d="M764 741q0 -83 -65 -150t-169 -67q-106 0 -174.5 63.5t-68.5 153.5q0 89 67 150t176 61q97 0 165.5 -64.5t68.5 -146.5zM803 -27l221 -223q-109 -127 -245 -195.5t-287 -68.5q-138 0 -247 46.5t-175 143t-66 230.5q0 54 18 102t46.5 83t63.5 66t70 56.5t63.5 49t46.5 48
t18 49.5v113h381v-164q0 -52 -33.5 -102.5t-81.5 -90t-96 -75.5t-81.5 -72t-33.5 -67q0 -97 152 -97q61 0 134 49.5t132 118.5z" />
    <glyph glyph-name="Agrave" unicode="&#xc0;" horiz-adv-x="1685" 
d="M535 1700l141 196l268 -368l-176 -90zM1655 0h-821v268h194l-43 140h-420l-43 -140h160v-268h-651v268h139l276 899h-84v265h787l362 -1164h144v-268zM641 653h268l-135 443z" />
    <glyph glyph-name="Aacute" unicode="&#xc1;" horiz-adv-x="1685" 
d="M1006 1700l-142 196l-268 -368l176 -90zM1655 0h-821v268h194l-43 140h-420l-43 -140h160v-268h-651v268h139l276 899h-84v265h787l362 -1164h144v-268zM641 653h268l-135 443z" />
    <glyph glyph-name="Acircumflex" unicode="&#xc2;" horiz-adv-x="1685" 
d="M778 1612l240 -148l127 107l-303 229h-144l-329 -264l176 -90zM1655 0h-821v268h194l-43 140h-420l-43 -140h160v-268h-651v268h139l276 899h-84v265h787l362 -1164h144v-268zM641 653h268l-135 443z" />
    <glyph glyph-name="Atilde" unicode="&#xc3;" horiz-adv-x="1685" 
d="M360 1694v-224q57 55 164 70.5t221 -27.5q63 -27 151.5 -36.5t162.5 5.5t92 52v205q-41 -37 -91.5 -56.5t-119.5 -16.5t-145 36q-113 55 -243.5 51.5t-191.5 -59.5zM1655 0h-821v268h194l-43 140h-420l-43 -140h160v-268h-651v268h139l276 899h-84v265h787l362 -1164h144
v-268zM641 653h268l-135 443z" />
    <glyph glyph-name="Adieresis" unicode="&#xc4;" horiz-adv-x="1685" 
d="M508 1657h192v-172h-192v172zM836 1657h192v-172h-192v172zM1655 0h-821v268h194l-43 140h-420l-43 -140h160v-268h-651v268h139l276 899h-84v265h787l362 -1164h144v-268zM641 653h268l-135 443z" />
    <glyph glyph-name="AE" unicode="&#xc6;" horiz-adv-x="2181" 
d="M2159 979h-355v182h-327v-282h389v-273h-389v-334h327v191h355v-463h-1235v272h129v136h-455l-84 -140h160v-268h-651v268h139l563 899h-84v265h1518v-453zM743 653h310v443z" />
    <glyph glyph-name="Ccedilla" unicode="&#xc7;" horiz-adv-x="1404" 
d="M1135 518l239 -262q-115 -128 -273.5 -208.5t-346.5 -80.5q-328 0 -525.5 197.5t-197.5 537.5q0 136 39 258.5t103 211t145 154t167.5 98t167.5 32.5q71 0 131.5 -17t98.5 -44t56.5 -44.5t29.5 -33.5l47 115h321v-582h-366q-5 109 -60 183.5t-157 74.5
q-108 0 -176 -117.5t-68 -288.5q0 -104 33 -190t102.5 -140.5t163.5 -54.5q31 0 63 8t58 20.5t53 30.5t46.5 34t40 36t31 32t22.5 26zM690 -18l-57 -191q77 36 160 44q92 10 88 -39l-4 -19q-14 -36 -57 -58t-99.5 -21t-104.5 28l-16 -109l18 -4q19 -4 48.5 -7.5t66.5 -4.5
t75.5 8t72 27.5t58.5 57t34 93.5q6 45 -1.5 75t-22 43.5t-42 18t-49 2.5t-56.5 -6q-9 -1 -14 -2l27 64h-125z" />
    <glyph glyph-name="Egrave" unicode="&#xc8;" horiz-adv-x="1337" 
d="M453 1706l141 197l268 -369l-176 -90zM51 1432h1235v-453h-354v182h-328v-282h389v-273h-389v-334h328v191h354v-463h-1235v272h129v889h-129v271z" />
    <glyph glyph-name="Eacute" unicode="&#xc9;" horiz-adv-x="1337" 
d="M874 1708l-141 197l-268 -369l176 -90zM51 1432h1235v-453h-354v182h-328v-282h389v-273h-389v-334h328v191h354v-463h-1235v272h129v889h-129v271z" />
    <glyph glyph-name="Ecircumflex" unicode="&#xca;" horiz-adv-x="1337" 
d="M737 1612l240 -148l127 107l-303 229h-144l-329 -264l176 -90zM51 1432h1235v-453h-354v182h-328v-282h389v-273h-389v-334h328v191h354v-463h-1235v272h129v889h-129v271z" />
    <glyph glyph-name="Edieresis" unicode="&#xcb;" horiz-adv-x="1275" 
d="M406 1657h192v-172h-192v172zM733 1657h193v-172h-193v172zM51 1432h1235v-453h-354v182h-328v-282h389v-273h-389v-334h328v191h354v-463h-1235v272h129v889h-129v271z" />
    <glyph glyph-name="Igrave" unicode="&#xcc;" horiz-adv-x="782" 
d="M158 1708l141 197l268 -369l-176 -90zM51 1432h680v-271h-127v-889h127v-272h-680v272h129v889h-129v271z" />
    <glyph glyph-name="Iacute" unicode="&#xcd;" horiz-adv-x="782" 
d="M629 1708l-142 197l-268 -369l176 -90zM51 1432h680v-271h-127v-889h127v-272h-680v272h129v889h-129v271z" />
    <glyph glyph-name="Icircumflex" unicode="&#xce;" horiz-adv-x="782" 
d="M389 1612l240 -148l127 107l-303 229h-144l-329 -264l176 -90zM51 1432h680v-271h-127v-889h127v-272h-680v272h129v889h-129v271z" />
    <glyph glyph-name="Idieresis" unicode="&#xcf;" horiz-adv-x="782" 
d="M121 1677h192v-172h-192v172zM449 1677h192v-172h-192v172zM51 1432h680v-271h-127v-889h127v-272h-680v272h129v889h-129v271z" />
    <glyph glyph-name="Ntilde" unicode="&#xd1;" horiz-adv-x="1671" 
d="M428 1694v-224q57 55 164 70.5t221 -27.5q93 -43 237.5 -39t192.5 60v205q-63 -57 -160.5 -70.5t-220.5 33.5q-113 55 -243 51.5t-191 -59.5zM1620 1167h-135v-1167h-441l-522 780v-516h158v-264h-629v264h121v903h-119v265h588l502 -752v487h-139v265h616v-265z" />
    <glyph glyph-name="Ograve" unicode="&#xd2;" horiz-adv-x="1515" 
d="M516 1735l141 196l269 -368l-176 -90zM764 -37q-162 0 -295.5 47.5t-231.5 140t-152 238.5t-54 334q0 218 91 388.5t254.5 264.5t373.5 94q185 0 326 -54t230 -154t134 -239t45 -314q0 -350 -188.5 -548t-532.5 -198zM764 285q96 0 152.5 116t56.5 308q0 129 -22.5 226.5
t-74.5 158.5t-128 61q-93 1 -152 -120t-59 -312q0 -198 63.5 -318t163.5 -120z" />
    <glyph glyph-name="Oacute" unicode="&#xd3;" horiz-adv-x="1515" 
d="M983 1739l-141 196l-269 -368l177 -90zM764 -37q-162 0 -295.5 47.5t-231.5 140t-152 238.5t-54 334q0 218 91 388.5t254.5 264.5t373.5 94q185 0 326 -54t230 -154t134 -239t45 -314q0 -350 -188.5 -548t-532.5 -198zM764 285q96 0 152.5 116t56.5 308
q0 129 -22.5 226.5t-74.5 158.5t-128 61q-93 1 -152 -120t-59 -312q0 -198 63.5 -318t163.5 -120z" />
    <glyph glyph-name="Ocircumflex" unicode="&#xd4;" horiz-adv-x="1515" 
d="M758 1632l239 -147l127 106l-303 230h-143l-330 -265l176 -90zM764 -37q-162 0 -295.5 47.5t-231.5 140t-152 238.5t-54 334q0 218 91 388.5t254.5 264.5t373.5 94q185 0 326 -54t230 -154t134 -239t45 -314q0 -350 -188.5 -548t-532.5 -198zM764 285q96 0 152.5 116
t56.5 308q0 129 -22.5 226.5t-74.5 158.5t-128 61q-93 1 -152 -120t-59 -312q0 -198 63.5 -318t163.5 -120z" />
    <glyph glyph-name="Odieresis" unicode="&#xd6;" horiz-adv-x="1515" 
d="M487 1698h193v-172h-193v172zM815 1698h193v-172h-193v172zM764 -37q-162 0 -295.5 47.5t-231.5 140t-152 238.5t-54 334q0 218 91 388.5t254.5 264.5t373.5 94q185 0 326 -54t230 -154t134 -239t45 -314q0 -350 -188.5 -548t-532.5 -198zM764 285q96 0 152.5 116
t56.5 308q0 129 -22.5 226.5t-74.5 158.5t-128 61q-93 1 -152 -120t-59 -312q0 -198 63.5 -318t163.5 -120z" />
    <glyph glyph-name="multiply" unicode="&#xd7;" 
d="M152 195l294 294l-294 293l192 193l295 -293l293 293l192 -193l-293 -293l293 -294l-192 -193l-293 295l-295 -295z" />
    <glyph glyph-name="Ugrave" unicode="&#xd9;" horiz-adv-x="1509" 
d="M555 1706l141 197l269 -369l-177 -90zM31 1432h651v-265h-111v-442q0 -98 9 -168.5t25 -115t42.5 -70.5t56.5 -35.5t72 -9.5q41 0 70 8t56.5 32t44 67.5t26.5 117t10 176.5v434h-111v271h607v-265h-111v-497q0 -359 -148 -532t-440 -173q-315 9 -475 179.5t-160 514.5
v506h-114v267z" />
    <glyph glyph-name="Uacute" unicode="&#xda;" horiz-adv-x="1509" 
d="M1006 1706l-142 197l-268 -369l176 -90zM31 1432h651v-265h-111v-442q0 -98 9 -168.5t25 -115t42.5 -70.5t56.5 -35.5t72 -9.5q41 0 70 8t56.5 32t44 67.5t26.5 117t10 176.5v434h-111v271h607v-265h-111v-497q0 -359 -148 -532t-440 -173q-315 9 -475 179.5t-160 514.5
v506h-114v267z" />
    <glyph glyph-name="Ucircumflex" unicode="&#xdb;" horiz-adv-x="1509" 
d="M778 1612l240 -148l127 107l-303 229h-144l-329 -264l176 -90zM31 1432h651v-265h-111v-442q0 -98 9 -168.5t25 -115t42.5 -70.5t56.5 -35.5t72 -9.5q41 0 70 8t56.5 32t44 67.5t26.5 117t10 176.5v434h-111v271h607v-265h-111v-497q0 -359 -148 -532t-440 -173
q-315 9 -475 179.5t-160 514.5v506h-114v267z" />
    <glyph glyph-name="Udieresis" unicode="&#xdc;" horiz-adv-x="1509" 
d="M489 1657h193v-172h-193v172zM870 1657h193v-172h-193v172zM31 1432h651v-265h-111v-442q0 -98 9 -168.5t25 -115t42.5 -70.5t56.5 -35.5t72 -9.5q41 0 70 8t56.5 32t44 67.5t26.5 117t10 176.5v434h-111v271h607v-265h-111v-497q0 -359 -148 -532t-440 -173
q-315 9 -475 179.5t-160 514.5v506h-114v267z" />
    <glyph glyph-name="agrave" unicode="&#xe0;" horiz-adv-x="1228" 
d="M1075 262h123v-262h-438l-49 92q-51 -70 -129 -100.5t-148 -30.5q-60 0 -117 12.5t-109 39.5t-91 66.5t-62.5 97t-23.5 126.5q0 112 58.5 199t155 132.5t212.5 45.5q55 0 103.5 -16.5t69.5 -31t29 -24.5v72q0 64 -51 89.5t-143 25.5q-133 0 -305 -95l-86 238
q243 145 446 145h39l-229 256l141 197l268 -369l-166 -86q74 -4 142 -18.5t135 -46t116 -77.5t79 -117t30 -160v-400zM659 295v78q-35 59 -120 59q-59 0 -89 -29.5t-30 -78.5q0 -42 31 -69.5t77 -27.5q43 0 79.5 21t51.5 47z" />
    <glyph glyph-name="aacute" unicode="&#xe1;" horiz-adv-x="1228" 
d="M801 1339l-142 197l-268 -369l176 -90zM160 700l-86 238q243 145 446 145q79 0 152.5 -11.5t148.5 -42t130 -76.5t89.5 -121t34.5 -170v-400h123v-262h-438l-49 92q-51 -70 -129 -100.5t-148 -30.5q-60 0 -117 12.5t-109 39.5t-91 66.5t-62.5 97t-23.5 126.5
q0 112 58.5 199t155 132.5t212.5 45.5q55 0 103.5 -16.5t69.5 -31t29 -24.5v72q0 64 -51 89.5t-143 25.5q-133 0 -305 -95zM659 295v78q-35 59 -120 59q-59 0 -89 -29.5t-30 -78.5q0 -42 31 -69.5t77 -27.5q43 0 79.5 21t51.5 47z" />
    <glyph glyph-name="acircumflex" unicode="&#xe2;" horiz-adv-x="1228" 
d="M516 1243l240 -147l127 106l-303 230h-144l-330 -265l177 -90zM160 700l-86 238q243 145 446 145q79 0 152.5 -11.5t148.5 -42t130 -76.5t89.5 -121t34.5 -170v-400h123v-262h-438l-49 92q-51 -70 -129 -100.5t-148 -30.5q-60 0 -117 12.5t-109 39.5t-91 66.5t-62.5 97
t-23.5 126.5q0 112 58.5 199t155 132.5t212.5 45.5q55 0 103.5 -16.5t69.5 -31t29 -24.5v72q0 64 -51 89.5t-143 25.5q-133 0 -305 -95zM659 295v78q-35 59 -120 59q-59 0 -89 -29.5t-30 -78.5q0 -42 31 -69.5t77 -27.5q43 0 79.5 21t51.5 47z" />
    <glyph glyph-name="atilde" unicode="&#xe3;" horiz-adv-x="1228" 
d="M162 1366v-223q57 55 164 70.5t221 -27.5q64 -28 152 -37t167 5.5t111 51.5v205q-63 -57 -160.5 -70.5t-220.5 33.5q-113 55 -243 51.5t-191 -59.5zM160 700l-86 238q243 145 446 145q79 0 152.5 -11.5t148.5 -42t130 -76.5t89.5 -121t34.5 -170v-400h123v-262h-438
l-49 92q-51 -70 -129 -100.5t-148 -30.5q-60 0 -117 12.5t-109 39.5t-91 66.5t-62.5 97t-23.5 126.5q0 112 58.5 199t155 132.5t212.5 45.5q55 0 103.5 -16.5t69.5 -31t29 -24.5v72q0 64 -51 89.5t-143 25.5q-133 0 -305 -95zM659 295v78q-35 59 -120 59q-59 0 -89 -29.5
t-30 -78.5q0 -42 31 -69.5t77 -27.5q43 0 79.5 21t51.5 47z" />
    <glyph glyph-name="adieresis" unicode="&#xe4;" horiz-adv-x="1228" 
d="M260 1370h193v-172h-193v172zM588 1370h192v-172h-192v172zM160 700l-86 238q243 145 446 145q79 0 152.5 -11.5t148.5 -42t130 -76.5t89.5 -121t34.5 -170v-400h123v-262h-438l-49 92q-51 -70 -129 -100.5t-148 -30.5q-60 0 -117 12.5t-109 39.5t-91 66.5t-62.5 97
t-23.5 126.5q0 112 58.5 199t155 132.5t212.5 45.5q55 0 103.5 -16.5t69.5 -31t29 -24.5v72q0 64 -51 89.5t-143 25.5q-133 0 -305 -95zM659 295v78q-35 59 -120 59q-59 0 -89 -29.5t-30 -78.5q0 -42 31 -69.5t77 -27.5q43 0 79.5 21t51.5 47z" />
    <glyph glyph-name="ae" unicode="&#xe6;" horiz-adv-x="1912" 
d="M1710 340l172 -199q-111 -96 -237.5 -137t-290.5 -41q-129 0 -247.5 54t-193.5 159q-17 -44 -50 -79.5t-68.5 -57.5t-83.5 -38t-84 -23.5t-82 -11.5t-65.5 -4.5t-45.5 -0.5q-60 0 -117 12.5t-109 39.5t-91 66.5t-62.5 97t-23.5 126.5q0 112 58.5 199t155 132.5
t212.5 45.5q55 0 103.5 -16.5t69.5 -31t29 -24.5v72q0 64 -51 89.5t-143 25.5q-133 0 -305 -95l-86 238q243 145 446 145q137 0 261.5 -38.5t201.5 -122.5q153 131 381 131q180 0 312 -82.5t177 -214.5q14 -40 22.5 -95t5.5 -126t-23 -125h-646q5 -23 10 -39t20 -43
t35.5 -43.5t58.5 -29.5t87 -13q169 0 287 98zM1219 612h309q-1 34 -6.5 59.5t-20.5 51t-46.5 39.5t-78.5 14q-44 0 -76 -17.5t-48 -46t-23.5 -52.5t-9.5 -48zM659 295v78q-35 59 -120 59q-59 0 -89 -29.5t-30 -78.5q0 -42 31 -69.5t77 -27.5q43 0 79.5 21t51.5 47z" />
    <glyph glyph-name="ccedilla" unicode="&#xe7;" horiz-adv-x="1087" 
d="M887 389l180 -209q-76 -83 -203 -143t-274 -66l-17 -43q84 12 112 4q60 -17 48 -116q-10 -65 -47 -103t-82.5 -47.5t-89 -8.5t-74.5 7l-30 6l16 92q65 -33 135 -18.5t88 61.5q18 53 -52 53q-68 0 -155 -36l-4 -2l47 155q-102 12 -188 52t-152.5 106t-104.5 165t-38 220
q0 131 41.5 233.5t112.5 165t160 94t190 31.5q157 0 256 -116l35 98h241v-463h-301q-2 55 -13.5 100t-41.5 80t-74 35q-86 0 -133 -77t-47 -185q0 -103 57.5 -172t153.5 -70q78 -1 135.5 28t112.5 89z" />
    <glyph glyph-name="egrave" unicode="&#xe8;" horiz-adv-x="1110" 
d="M330 1339l141 197l268 -369l-176 -90zM907 340l172 -199q-111 -96 -237.5 -137t-290.5 -41q-79 0 -154 19.5t-146 63t-124 107t-85 157.5t-32 208q0 123 42.5 225t117 169t175 104t216.5 37q180 0 312.5 -82.5t177.5 -214.5q14 -40 22 -95t5 -125.5t-23 -125.5h-645
q5 -23 10 -39t20 -43t35.5 -43.5t58.5 -29.5t87 -13q46 0 82 4.5t94.5 27.5t109.5 66zM416 612h309q-1 34 -6.5 59.5t-20.5 51t-46.5 39.5t-78.5 14q-44 0 -76 -17.5t-48 -46t-23.5 -52.5t-9.5 -48z" />
    <glyph glyph-name="eacute" unicode="&#xe9;" horiz-adv-x="1110" 
d="M793 1339l-142 197l-268 -369l176 -90zM907 340l172 -199q-111 -96 -237.5 -137t-290.5 -41q-79 0 -154 19.5t-146 63t-124 107t-85 157.5t-32 208q0 123 42.5 225t117 169t175 104t216.5 37q180 0 312.5 -82.5t177.5 -214.5q14 -40 22 -95t5 -125.5t-23 -125.5h-645
q5 -23 10 -39t20 -43t35.5 -43.5t58.5 -29.5t87 -13q46 0 82 4.5t94.5 27.5t109.5 66zM416 612h309q-1 34 -6.5 59.5t-20.5 51t-46.5 39.5t-78.5 14q-44 0 -76 -17.5t-48 -46t-23.5 -52.5t-9.5 -48z" />
    <glyph glyph-name="ecircumflex" unicode="&#xea;" horiz-adv-x="1110" 
d="M567 1243l240 -147l127 106l-303 230h-144l-329 -265l176 -90zM907 340l172 -199q-111 -96 -237.5 -137t-290.5 -41q-79 0 -154 19.5t-146 63t-124 107t-85 157.5t-32 208q0 123 42.5 225t117 169t175 104t216.5 37q180 0 312.5 -82.5t177.5 -214.5q14 -40 22 -95
t5 -125.5t-23 -125.5h-645q5 -23 10 -39t20 -43t35.5 -43.5t58.5 -29.5t87 -13q46 0 82 4.5t94.5 27.5t109.5 66zM416 612h309q-1 34 -6.5 59.5t-20.5 51t-46.5 39.5t-78.5 14q-44 0 -76 -17.5t-48 -46t-23.5 -52.5t-9.5 -48z" />
    <glyph glyph-name="edieresis" unicode="&#xeb;" horiz-adv-x="1110" 
d="M299 1370h193v-172h-193v172zM627 1370h192v-172h-192v172zM907 340l172 -199q-111 -96 -237.5 -137t-290.5 -41q-79 0 -154 19.5t-146 63t-124 107t-85 157.5t-32 208q0 123 42.5 225t117 169t175 104t216.5 37q180 0 312.5 -82.5t177.5 -214.5q14 -40 22 -95t5 -125.5
t-23 -125.5h-645q5 -23 10 -39t20 -43t35.5 -43.5t58.5 -29.5t87 -13q46 0 82 4.5t94.5 27.5t109.5 66zM416 612h309q-1 34 -6.5 59.5t-20.5 51t-46.5 39.5t-78.5 14q-44 0 -76 -17.5t-48 -46t-23.5 -52.5t-9.5 -48z" />
    <glyph glyph-name="igrave" unicode="&#xec;" horiz-adv-x="675" 
d="M104 1339l142 197l268 -369l-176 -90zM625 0h-574v268h86v490h-86v266h475v-756h99v-268z" />
    <glyph glyph-name="iacute" unicode="&#xed;" horiz-adv-x="675" 
d="M547 1339l-141 197l-269 -369l176 -90zM625 0h-574v268h86v490h-86v266h475v-756h99v-268z" />
    <glyph glyph-name="icircumflex" unicode="&#xee;" horiz-adv-x="675" 
d="M307 1243l240 -147l127 106l-303 230h-144l-329 -265l176 -90zM625 0h-574v268h86v490h-86v266h475v-756h99v-268z" />
    <glyph glyph-name="idieresis" unicode="&#xef;" horiz-adv-x="675" 
d="M53 1370h193v-172h-193v172zM334 1370h192v-172h-192v172zM625 0h-574v268h86v490h-86v266h475v-756h99v-268z" />
    <glyph glyph-name="ntilde" unicode="&#xf1;" horiz-adv-x="1325" 
d="M244 1366v-223q57 55 164 70.5t221 -27.5q64 -28 152 -37t167 5.5t111 51.5v205q-63 -57 -160.5 -70.5t-220.5 33.5q-113 55 -243 51.5t-191 -59.5zM682 0h-631v268h86v490h-86v266h436l48 -127q120 164 292 164q92 0 160 -27t107.5 -69t63.5 -104t32 -121t8 -130v-342
h96v-268h-516v559q0 89 -12 124q-26 66 -102 67q-37 0 -63.5 -17t-40 -46t-19.5 -60.5t-6 -67.5v-291h147v-268z" />
    <glyph glyph-name="ograve" unicode="&#xf2;" horiz-adv-x="1175" 
d="M348 1315l141 196l269 -368l-176 -90zM594 -27q-112 0 -213.5 34.5t-183 100.5t-128.5 171.5t-46 236.5q1 100 32 186.5t85 149t125 108t152.5 67.5t166.5 22q163 -2 289.5 -65t201.5 -186t78 -290q1 -124 -42 -226.5t-119.5 -169t-178.5 -103t-219 -36.5zM594 236
q64 0 101.5 76.5t37.5 195.5t-39.5 196t-109.5 78q-60 0 -101 -77.5t-41 -190.5q0 -124 43 -201t109 -77z" />
    <glyph glyph-name="oacute" unicode="&#xf3;" horiz-adv-x="1175" 
d="M819 1315l-141 196l-268 -368l176 -90zM594 -27q-112 0 -213.5 34.5t-183 100.5t-128.5 171.5t-46 236.5q1 100 32 186.5t85 149t125 108t152.5 67.5t166.5 22q163 -2 289.5 -65t201.5 -186t78 -290q1 -124 -42 -226.5t-119.5 -169t-178.5 -103t-219 -36.5zM594 236
q64 0 101.5 76.5t37.5 195.5t-39.5 196t-109.5 78q-60 0 -101 -77.5t-41 -190.5q0 -124 43 -201t109 -77z" />
    <glyph glyph-name="ocircumflex" unicode="&#xf4;" horiz-adv-x="1175" 
d="M584 1243l239 -147l127 106l-303 230h-143l-330 -265l176 -90zM594 -27q-112 0 -213.5 34.5t-183 100.5t-128.5 171.5t-46 236.5q1 100 32 186.5t85 149t125 108t152.5 67.5t166.5 22q163 -2 289.5 -65t201.5 -186t78 -290q1 -124 -42 -226.5t-119.5 -169t-178.5 -103
t-219 -36.5zM594 236q64 0 101.5 76.5t37.5 195.5t-39.5 196t-109.5 78q-60 0 -101 -77.5t-41 -190.5q0 -124 43 -201t109 -77z" />
    <glyph glyph-name="odieresis" unicode="&#xf6;" horiz-adv-x="1175" 
d="M324 1370h192v-172h-192v172zM651 1370h193v-172h-193v172zM594 -27q-112 0 -213.5 34.5t-183 100.5t-128.5 171.5t-46 236.5q1 100 32 186.5t85 149t125 108t152.5 67.5t166.5 22q163 -2 289.5 -65t201.5 -186t78 -290q1 -124 -42 -226.5t-119.5 -169t-178.5 -103
t-219 -36.5zM594 236q64 0 101.5 76.5t37.5 195.5t-39.5 196t-109.5 78q-60 0 -101 -77.5t-41 -190.5q0 -124 43 -201t109 -77z" />
    <glyph glyph-name="divide" unicode="&#xf7;" 
d="M420 913q0 85 62 157.5t165 72.5t167.5 -72.5t64.5 -157.5q0 -93 -63 -155t-169 -62q-93 0 -160 67.5t-67 149.5zM86 627h1104v-111h-1104v111zM420 221q0 85 62 157.5t165 72.5t167.5 -72.5t64.5 -157.5q0 -92 -64.5 -154.5t-167.5 -62.5q-96 0 -161.5 67t-65.5 150z
" />
    <glyph glyph-name="ugrave" unicode="&#xf9;" 
d="M330 1339l141 197l268 -369l-176 -90zM31 1024h495v-494q0 -136 25 -197t86 -61q55 0 92 44t37 112v326h-135v270h530v-752h101v-272h-388l-55 129q-1 -1 -20.5 -24t-27.5 -30.5t-30 -28.5t-40.5 -30t-46 -22t-59 -18t-67.5 -5q-226 0 -318.5 119t-92.5 381v283h-86v270z
" />
    <glyph glyph-name="uacute" unicode="&#xfa;" 
d="M821 1339l-141 197l-268 -369l176 -90zM31 1024h495v-494q0 -136 25 -197t86 -61q55 0 92 44t37 112v326h-135v270h530v-752h101v-272h-388l-55 129q-1 -1 -20.5 -24t-27.5 -30.5t-30 -28.5t-40.5 -30t-46 -22t-59 -18t-67.5 -5q-226 0 -318.5 119t-92.5 381v283h-86v270
z" />
    <glyph glyph-name="ucircumflex" unicode="&#xfb;" 
d="M588 1243l239 -147l127 106l-303 230h-143l-330 -265l176 -90zM31 1024h495v-494q0 -136 25 -197t86 -61q55 0 92 44t37 112v326h-135v270h530v-752h101v-272h-388l-55 129q-1 -1 -20.5 -24t-27.5 -30.5t-30 -28.5t-40.5 -30t-46 -22t-59 -18t-67.5 -5q-226 0 -318.5 119
t-92.5 381v283h-86v270z" />
    <glyph glyph-name="udieresis" unicode="&#xfc;" 
d="M299 1370h193v-172h-193v172zM627 1370h192v-172h-192v172zM31 1024h495v-494q0 -136 25 -197t86 -61q55 0 92 44t37 112v326h-135v270h530v-752h101v-272h-388l-55 129q-1 -1 -20.5 -24t-27.5 -30.5t-30 -28.5t-40.5 -30t-46 -22t-59 -18t-67.5 -5q-226 0 -318.5 119
t-92.5 381v283h-86v270z" />
    <glyph glyph-name="OE" unicode="&#x152;" horiz-adv-x="2181" 
d="M2255 979h-354v182h-328v-282h389v-273h-389v-334h328v191h354v-463h-1235v96q-162 -98 -393 -98q-155 0 -282 45.5t-220.5 134t-145 227.5t-51.5 318q0 208 86.5 371t242.5 252.5t355 89.5q241 0 408 -99v95h1235v-453zM627 305q91 0 144.5 110.5t53.5 293.5
q0 123 -21.5 216.5t-71 152.5t-122.5 59q-89 0 -144.5 -116t-55.5 -298q0 -189 61.5 -303.5t155.5 -114.5z" />
    <glyph glyph-name="oe" unicode="&#x153;" horiz-adv-x="1916" 
d="M1714 340l172 -199q-111 -96 -237.5 -137t-290.5 -41q-102 0 -200 34.5t-173 102.5q-151 -127 -383 -127q-112 0 -213.5 34.5t-183 100.5t-128.5 171.5t-46 236.5q1 100 32 186.5t85 149t125 108t152.5 67.5t166.5 22q239 -3 391 -131q150 135 385 135q180 0 312.5 -82.5
t177.5 -214.5q14 -40 22 -95t5 -125.5t-23 -125.5h-645q5 -24 10 -39.5t20 -42.5t35.5 -43.5t58 -29.5t86.5 -13q169 0 287 98zM602 236q64 0 101.5 76.5t37.5 195.5t-39.5 196t-109.5 78q-60 0 -100.5 -77.5t-40.5 -190.5q0 -124 43 -201t108 -77zM1223 612h309
q-1 34 -6.5 59.5t-20.5 51t-46.5 39.5t-78.5 14q-44 0 -76 -17.5t-48 -46t-23.5 -52.5t-9.5 -48z" />
    <glyph glyph-name="ring" unicode="&#x2da;" horiz-adv-x="1705" 
 />
    <glyph glyph-name="endash" unicode="&#x2013;" horiz-adv-x="915" 
d="M66 625h772v-273h-772v273z" />
    <glyph glyph-name="emdash" unicode="&#x2014;" 
d="M86 625h1104v-273h-1104v273z" />
    <glyph glyph-name="quoteleft" unicode="&#x2018;" horiz-adv-x="628" 
d="M362 1548l236 -133q-115 -144 -162 -293.5t-33 -371.5l-372 98q-6 194 82 375.5t249 324.5z" />
    <glyph glyph-name="quoteright" unicode="&#x2019;" horiz-adv-x="628" 
d="M266 750l-235 133q115 144 161.5 293.5t32.5 371.5l373 -98q6 -194 -82.5 -375.5t-249.5 -324.5z" />
    <glyph glyph-name="quotedblleft" unicode="&#x201c;" horiz-adv-x="1062" 
d="M336 1548l235 -133q-115 -144 -161.5 -293.5t-32.5 -371.5l-373 98q-6 194 82.5 375.5t249.5 324.5zM827 1548l236 -133q-115 -144 -162 -293.5t-33 -371.5l-372 98q-6 194 82 375.5t249 324.5z" />
    <glyph glyph-name="quotedblright" unicode="&#x201d;" horiz-adv-x="1062" 
d="M240 750l-236 133q115 144 162 293.5t33 371.5l372 -98q6 -194 -82 -375.5t-249 -324.5zM731 750l-235 133q115 144 161.5 293.5t32.5 371.5l373 -98q6 -194 -82.5 -375.5t-249.5 -324.5z" />
    <glyph glyph-name="bullet" unicode="&#x2022;" horiz-adv-x="712" 
d="M123 659q0 87 63 160.5t168 73.5t170.5 -74t65.5 -160q0 -96 -62 -158.5t-174 -62.5q-98 0 -164.5 68t-66.5 153z" />
    <glyph glyph-name="ellipsis" unicode="&#x2026;" horiz-adv-x="2048" 
d="M238 213q0 87 63 160t168 73t170.5 -73.5t65.5 -159.5q0 -96 -62 -158.5t-174 -62.5q-98 0 -164.5 68t-66.5 153zM791 213q0 87 63 160t168 73t170 -73.5t65 -159.5q0 -96 -62 -158.5t-173 -62.5q-98 0 -164.5 68t-66.5 153zM1343 213q0 87 63.5 160t168.5 73t170 -73.5
t65 -159.5q0 -96 -62 -158.5t-173 -62.5q-98 0 -165 68t-67 153z" />
    <glyph glyph-name="Euro" unicode="&#x20ac;" horiz-adv-x="1638" 
d="M1188 426h411v-426h-348l-63 129q-36 -61 -126.5 -104t-203.5 -43q-235 0 -407.5 147.5t-219.5 400.5h-229l49 142h164v30v33h-141l49 142h108q33 171 126.5 304t221 204t265.5 71q71 0 130.5 -11t97 -26t71 -37.5t48.5 -38t32 -36t20 -23.5l43 148h305v-605h-366
q-4 120 -71.5 190t-162.5 70q-85 0 -151 -57.5t-101 -152.5h383l-49 -142h-362v-33v-30h340l-50 -142h-264q32 -94 97.5 -149t156.5 -55q80 0 125 26.5t72 73.5z" />
    <glyph glyph-name="minus" unicode="&#x2212;" 
d="M86 625h1104v-273h-1104v273z" />
    <glyph glyph-name="CR" horiz-adv-x="573" 
 />
  </font>
</defs>
</svg>
